  0
SECTION
  2
HEADER
  9
$ACADVER
  1
AC1014
  9
$ACADMAINTVER
 70
     9
  9
$DWGCODEPAGE
  3
ANSI_1252
  9
$INSBASE
 10
0.0
 20
0.0
 30
0.0
  9
$EXTMIN
 10
1.462392571530469
 20
5.712709577383397
 30
0.0
  9
$EXTMAX
 10
11.27291176239782
 20
9.320601371845114
 30
0.0
  9
$LIMMIN
 10
0.0
 20
0.0
  9
$LIMMAX
 10
12.0
 20
9.0
  9
$ORTHOMODE
 70
     0
  9
$REGENMODE
 70
     1
  9
$FILLMODE
 70
     1
  9
$QTEXTMODE
 70
     0
  9
$MIRRTEXT
 70
     1
  9
$DRAGMODE
 70
     2
  9
$LTSCALE
 40
1.0
  9
$OSMODE
 70
     0
  9
$ATTMODE
 70
     1
  9
$TEXTSIZE
 40
0.2
  9
$TRACEWID
 40
0.05
  9
$TEXTSTYLE
  7
STANDARD
  9
$CLAYER
  8
0
  9
$CELTYPE
  6
BYLAYER
  9
$CECOLOR
 62
   256
  9
$CELTSCALE
 40
1.0
  9
$DELOBJ
 70
     1
  9
$DISPSILH
 70
     0
  9
$DIMSCALE
 40
1.0
  9
$DIMASZ
 40
0.18
  9
$DIMEXO
 40
0.0625
  9
$DIMDLI
 40
0.38
  9
$DIMRND
 40
0.0
  9
$DIMDLE
 40
0.0
  9
$DIMEXE
 40
0.18
  9
$DIMTP
 40
0.0
  9
$DIMTM
 40
0.0
  9
$DIMTXT
 40
0.18
  9
$DIMCEN
 40
0.09
  9
$DIMTSZ
 40
0.0
  9
$DIMTOL
 70
     0
  9
$DIMLIM
 70
     0
  9
$DIMTIH
 70
     1
  9
$DIMTOH
 70
     1
  9
$DIMSE1
 70
     0
  9
$DIMSE2
 70
     0
  9
$DIMTAD
 70
     0
  9
$DIMZIN
 70
     0
  9
$DIMBLK
  1

  9
$DIMASO
 70
     1
  9
$DIMSHO
 70
     1
  9
$DIMPOST
  1

  9
$DIMAPOST
  1

  9
$DIMALT
 70
     0
  9
$DIMALTD
 70
     2
  9
$DIMALTF
 40
25.4
  9
$DIMLFAC
 40
1.0
  9
$DIMTOFL
 70
     0
  9
$DIMTVP
 40
0.0
  9
$DIMTIX
 70
     0
  9
$DIMSOXD
 70
     0
  9
$DIMSAH
 70
     0
  9
$DIMBLK1
  1

  9
$DIMBLK2
  1

  9
$DIMSTYLE
  2
STANDARD
  9
$DIMCLRD
 70
     0
  9
$DIMCLRE
 70
     0
  9
$DIMCLRT
 70
     0
  9
$DIMTFAC
 40
1.0
  9
$DIMGAP
 40
0.09
  9
$DIMJUST
 70
     0
  9
$DIMSD1
 70
     0
  9
$DIMSD2
 70
     0
  9
$DIMTOLJ
 70
     1
  9
$DIMTZIN
 70
     0
  9
$DIMALTZ
 70
     0
  9
$DIMALTTZ
 70
     0
  9
$DIMFIT
 70
     3
  9
$DIMUPT
 70
     0
  9
$DIMUNIT
 70
     2
  9
$DIMDEC
 70
     2
  9
$DIMTDEC
 70
     2
  9
$DIMALTU
 70
     2
  9
$DIMALTTD
 70
     2
  9
$DIMTXSTY
  7
STANDARD
  9
$DIMAUNIT
 70
     0
  9
$LUNITS
 70
     2
  9
$LUPREC
 70
     4
  9
$SKETCHINC
 40
0.1
  9
$FILLETRAD
 40
0.5
  9
$AUNITS
 70
     0
  9
$AUPREC
 70
     0
  9
$MENU
  1
.
  9
$ELEVATION
 40
0.0
  9
$PELEVATION
 40
0.0
  9
$THICKNESS
 40
0.0
  9
$LIMCHECK
 70
     0
  9
$BLIPMODE
 70
     0
  9
$CHAMFERA
 40
0.5
  9
$CHAMFERB
 40
0.5
  9
$CHAMFERC
 40
1.0
  9
$CHAMFERD
 40
0.0
  9
$SKPOLY
 70
     0
  9
$TDCREATE
 40
2452317.333580786
  9
$TDUPDATE
 40
2452642.589202314
  9
$TDINDWG
 40
0.0018218750
  9
$TDUSRTIMER
 40
0.0018218750
  9
$USRTIMER
 70
     1
  9
$ANGBASE
 50
0.0
  9
$ANGDIR
 70
     0
  9
$PDMODE
 70
     0
  9
$PDSIZE
 40
0.0
  9
$PLINEWID
 40
0.0
  9
$COORDS
 70
     1
  9
$SPLFRAME
 70
     0
  9
$SPLINETYPE
 70
     6
  9
$SPLINESEGS
 70
     8
  9
$ATTDIA
 70
     1
  9
$ATTREQ
 70
     1
  9
$HANDLING
 70
-16383
  9
$HANDSEED
  5
26D
  9
$SURFTAB1
 70
     6
  9
$SURFTAB2
 70
     6
  9
$SURFTYPE
 70
     6
  9
$SURFU
 70
     6
  9
$SURFV
 70
     6
  9
$UCSNAME
  2

  9
$UCSORG
 10
0.0
 20
0.0
 30
0.0
  9
$UCSXDIR
 10
1.0
 20
0.0
 30
0.0
  9
$UCSYDIR
 10
0.0
 20
1.0
 30
0.0
  9
$PUCSNAME
  2

  9
$PUCSORG
 10
0.0
 20
0.0
 30
0.0
  9
$PUCSXDIR
 10
1.0
 20
0.0
 30
0.0
  9
$PUCSYDIR
 10
0.0
 20
1.0
 30
0.0
  9
$USERI1
 70
     0
  9
$USERI2
 70
     0
  9
$USERI3
 70
     0
  9
$USERI4
 70
     0
  9
$USERI5
 70
     0
  9
$USERR1
 40
0.0
  9
$USERR2
 40
0.0
  9
$USERR3
 40
0.0
  9
$USERR4
 40
0.0
  9
$USERR5
 40
0.0
  9
$WORLDVIEW
 70
     1
  9
$SHADEDGE
 70
     3
  9
$SHADEDIF
 70
    70
  9
$TILEMODE
 70
     1
  9
$MAXACTVP
 70
    64
  9
$PINSBASE
 10
0.0
 20
0.0
 30
0.0
  9
$PLIMCHECK
 70
     0
  9
$PEXTMIN
 10
1.000000000000000E+20
 20
1.000000000000000E+20
 30
1.000000000000000E+20
  9
$PEXTMAX
 10
-1.000000000000000E+20
 20
-1.000000000000000E+20
 30
-1.000000000000000E+20
  9
$PLIMMIN
 10
0.0
 20
0.0
  9
$PLIMMAX
 10
12.0
 20
9.0
  9
$UNITMODE
 70
     0
  9
$VISRETAIN
 70
     1
  9
$PLINEGEN
 70
     0
  9
$PSLTSCALE
 70
     1
  9
$TREEDEPTH
 70
  3020
  9
$PICKSTYLE
 70
     1
  9
$CMLSTYLE
  2
STANDARD
  9
$CMLJUST
 70
     0
  9
$CMLSCALE
 40
1.0
  9
$PROXYGRAPHICS
 70
     1
  9
$MEASUREMENT
 70
     0
  0
ENDSEC
  0
SECTION
  2
CLASSES
  0
CLASS
  1
ACDBDICTIONARYWDFLT
  2
AcDbDictionaryWithDefault
  3
AutoCAD 2000
 90
        0
280
     0
281
     0
  0
CLASS
  1
ACDBPLACEHOLDER
  2
AcDbPlaceHolder
  3
AutoCAD 2000
 90
        0
280
     0
281
     0
  0
CLASS
  1
LAYOUT
  2
AcDbLayout
  3
AutoCAD 2000
 90
        0
280
     0
281
     0
  0
CLASS
  1
LONG_TRANSACTION
  2
AcDbLongTransaction
  3
AutoCAD 2000
 90
        0
280
     0
281
     0
  0
CLASS
  1
LWPOLYLINE
  2
AcDbPolyline
  3
AutoCAD 2000
 90
        0
280
     0
281
     1
  0
CLASS
  1
HATCH
  2
AcDbHatch
  3
AutoCAD 2000
 90
        0
280
     0
281
     1
  0
CLASS
  1
XRECORD
  2
AcDbXrecord
  3
AutoCAD 2000
 90
        0
280
     0
281
     0
  0
ENDSEC
  0
SECTION
  2
TABLES
  0
TABLE
  2
VPORT
  5
8
330
0
100
AcDbSymbolTable
 70
     3
  0
VPORT
  5
246
330
8
100
AcDbSymbolTableRecord
100
AcDbViewportTableRecord
  2
*ACTIVE
 70
     0
 10
0.0
 20
0.0
 11
1.0
 21
1.0
 12
6.581321444176377
 22
7.455882325181274
 13
0.0
 23
0.0
 14
0.5
 24
0.5
 15
0.5
 25
0.5
 16
0.0
 26
0.0
 36
1.0
 17
0.0
 27
0.0
 37
0.0
 40
8.99999999161816
 41
1.462515883100381
 42
50.0
 43
0.0
 44
0.0
 50
0.0
 51
0.0
 71
     0
 72
   100
 73
     1
 74
     3
 75
     0
 76
     0
 77
     0
 78
     0
  0
ENDTAB
  0
TABLE
  2
LTYPE
  5
5
330
0
100
AcDbSymbolTable
 70
     1
  0
LTYPE
  5
14
330
5
100
AcDbSymbolTableRecord
100
AcDbLinetypeTableRecord
  2
BYBLOCK
 70
     0
  3

 72
    65
 73
     0
 40
0.0
  0
LTYPE
  5
15
330
5
100
AcDbSymbolTableRecord
100
AcDbLinetypeTableRecord
  2
BYLAYER
 70
     0
  3

 72
    65
 73
     0
 40
0.0
  0
LTYPE
  5
16
330
5
100
AcDbSymbolTableRecord
100
AcDbLinetypeTableRecord
  2
CONTINUOUS
 70
     0
  3
Solid line
 72
    65
 73
     0
 40
0.0
  0
ENDTAB
  0
TABLE
  2
LAYER
  5
2
330
0
100
AcDbSymbolTable
 70
     5
  0
LAYER
  5
10
330
2
100
AcDbSymbolTableRecord
100
AcDbLayerTableRecord
  2
0
 70
     0
 62
     7
  6
CONTINUOUS
  0
LAYER
  5
34
330
2
100
AcDbSymbolTableRecord
100
AcDbLayerTableRecord
  2
L
 70
     0
 62
     7
  6
CONTINUOUS
  0
LAYER
  5
45
330
2
100
AcDbSymbolTableRecord
100
AcDbLayerTableRecord
  2
DEFPOINTS
 70
     0
 62
     7
  6
CONTINUOUS
  0
LAYER
  5
88
330
2
100
AcDbSymbolTableRecord
100
AcDbLayerTableRecord
  2
TX
 70
     0
 62
   150
  6
CONTINUOUS
  0
LAYER
  5
B5
330
2
100
AcDbSymbolTableRecord
100
AcDbLayerTableRecord
  2
MAIN
 70
     0
 62
     7
  6
CONTINUOUS
  0
ENDTAB
  0
TABLE
  2
STYLE
  5
3
330
0
100
AcDbSymbolTable
 70
     3
  0
STYLE
  5
11
330
3
100
AcDbSymbolTableRecord
100
AcDbTextStyleTableRecord
  2
STANDARD
 70
     0
 40
0.0
 41
1.0
 50
0.0
 71
     0
 42
0.2
  3
txt
  4

  0
STYLE
  5
35
330
3
100
AcDbSymbolTableRecord
100
AcDbTextStyleTableRecord
  2
REG
 70
     0
 40
0.0
 41
1.0
 50
0.0
 71
     0
 42
0.09375
  3
E:\R13\com\fonts\ARCHITXT.SHX
  4

  0
STYLE
  5
36
330
3
100
AcDbSymbolTableRecord
100
AcDbTextStyleTableRecord
  2
DIMTXT
 70
     0
 40
0.0
 41
1.0
 50
0.0
 71
     0
 42
1.125
  3
archt.shx
  4

  0
ENDTAB
  0
TABLE
  2
VIEW
  5
6
330
0
100
AcDbSymbolTable
 70
     0
  0
ENDTAB
  0
TABLE
  2
UCS
  5
7
330
0
100
AcDbSymbolTable
 70
     0
  0
ENDTAB
  0
TABLE
  2
APPID
  5
9
330
0
100
AcDbSymbolTable
 70
     1
  0
APPID
  5
12
330
9
100
AcDbSymbolTableRecord
100
AcDbRegAppTableRecord
  2
ACAD
 70
     0
  0
ENDTAB
  0
TABLE
  2
DIMSTYLE
  5
A
330
0
100
AcDbSymbolTable
 70
     6
  0
DIMSTYLE
105
27
102
{ACAD_REACTORS
330
C2
330
D0
102
}
330
A
100
AcDbSymbolTableRecord
100
AcDbDimStyleTableRecord
  2
STANDARD
 70
     0
  3

  4

  5

  6

  7

 40
1.0
 41
0.18
 42
0.0625
 43
0.38
 44
0.18
 45
0.0
 46
0.0
 47
0.0
 48
0.0
140
0.18
141
0.09
142
0.0
143
25.4
144
1.0
145
0.0
146
1.0
147
0.09
 71
     0
 72
     0
 73
     1
 74
     1
 75
     0
 76
     0
 77
     0
 78
     0
170
     0
171
     2
172
     0
173
     0
174
     0
175
     0
176
     0
177
     0
178
     0
270
     2
271
     2
272
     2
273
     2
274
     2
340
11
275
     0
280
     0
281
     0
282
     0
283
     1
284
     0
285
     0
286
     0
287
     3
288
     0
  0
DIMSTYLE
105
37
330
A
100
AcDbSymbolTableRecord
100
AcDbDimStyleTableRecord
  2
1
 70
     0
  3

  4

  5

  6

  7

 40
1.0
 41
1.125
 42
0.5
 43
0.375
 44
1.19921875
 45
0.0
 46
0.5
 47
0.0
 48
0.0
140
1.125
141
0.125
142
0.0
143
25.4
144
1.0
145
0.0
146
0.8
147
0.5625
 71
     0
 72
     0
 73
     0
 74
     0
 75
     0
 76
     0
 77
     1
 78
     3
170
     0
171
     2
172
     1
173
     0
174
     1
175
     0
176
   133
177
   133
178
   150
270
     2
271
     3
272
     3
273
     2
274
     2
340
36
275
     0
280
     0
281
     0
282
     0
283
     1
284
     0
285
     0
286
     0
287
     4
288
     0
  0
DIMSTYLE
105
38
330
A
100
AcDbSymbolTableRecord
100
AcDbDimStyleTableRecord
  2
1$2
 70
     0
  3

  4

  5
DOTSMALL
  6

  7

 40
1.0
 41
1.5
 42
0.5
 43
0.375
 44
1.19921875
 45
0.0
 46
0.5
 47
0.0
 48
0.0
140
0.75
141
0.125
142
0.0
143
25.4
144
1.0
145
0.0
146
0.8
147
0.5625
 71
     0
 72
     0
 73
     0
 74
     0
 75
     0
 76
     0
 77
     1
 78
     3
170
     0
171
     2
172
     1
173
     0
174
     1
175
     0
176
   133
177
   133
178
   150
270
     2
271
     3
272
     3
273
     2
274
     2
340
36
275
     0
280
     0
281
     0
282
     0
283
     1
284
     0
285
     0
286
     0
287
     4
288
     0
  0
DIMSTYLE
105
39
330
A
100
AcDbSymbolTableRecord
100
AcDbDimStyleTableRecord
  2
1$4
 70
     0
  3

  4

  5

  6

  7
DOTSMALL
 40
1.0
 41
1.5
 42
0.5
 43
0.375
 44
1.19921875
 45
0.0
 46
0.5
 47
0.0
 48
0.0
140
0.75
141
0.125
142
0.0
143
25.4
144
1.0
145
0.0
146
0.8
147
0.5625
 71
     0
 72
     0
 73
     0
 74
     0
 75
     0
 76
     0
 77
     1
 78
     3
170
     0
171
     2
172
     1
173
     1
174
     1
175
     0
176
   133
177
   133
178
   150
270
     2
271
     3
272
     3
273
     2
274
     2
340
36
275
     0
280
     0
281
     0
282
     0
283
     1
284
     0
285
     0
286
     0
287
     4
288
     0
  0
DIMSTYLE
105
3A
330
A
100
AcDbSymbolTableRecord
100
AcDbDimStyleTableRecord
  2
1$3
 70
     0
  3

  4

  5
DOTSMALL
  6

  7

 40
1.0
 41
1.5
 42
0.5
 43
0.375
 44
1.19921875
 45
0.0
 46
0.5
 47
0.0
 48
0.0
140
0.75
141
0.125
142
0.0
143
25.4
144
1.0
145
0.0
146
0.8
147
0.5625
 71
     0
 72
     0
 73
     0
 74
     0
 75
     0
 76
     0
 77
     1
 78
     3
170
     0
171
     2
172
     1
173
     0
174
     1
175
     0
176
   133
177
   133
178
   150
270
     2
271
     3
272
     3
273
     2
274
     2
340
36
275
     0
280
     0
281
     0
282
     0
283
     1
284
     0
285
     0
286
     0
287
     4
288
     0
  0
DIMSTYLE
105
3B
330
A
100
AcDbSymbolTableRecord
100
AcDbDimStyleTableRecord
  2
1$7
 70
     0
  3

  4

  5

  6

  7

 40
1.0
 41
1.0
 42
0.5
 43
0.375
 44
1.19921875
 45
0.0
 46
0.5
 47
0.0
 48
0.0
140
0.75
141
0.125
142
0.0
143
25.4
144
1.0
145
0.0
146
0.8
147
0.5625
 71
     0
 72
     0
 73
     0
 74
     0
 75
     0
 76
     0
 77
     1
 78
     3
170
     0
171
     2
172
     1
173
     0
174
     1
175
     0
176
   133
177
   133
178
   150
270
     2
271
     3
272
     3
273
     2
274
     2
340
36
275
     0
280
     0
281
     0
282
     0
283
     1
284
     0
285
     0
286
     0
287
     4
288
     0
  0
ENDTAB
  0
TABLE
  2
BLOCK_RECORD
  5
1
330
0
100
AcDbSymbolTable
 70
     5
  0
BLOCK_RECORD
  5
1F
102
{ACAD_XDICTIONARY
360
269
102
}
330
1
100
AcDbSymbolTableRecord
100
AcDbBlockTableRecord
  2
*MODEL_SPACE
  0
BLOCK_RECORD
  5
1B
102
{ACAD_XDICTIONARY
360
267
102
}
330
1
100
AcDbSymbolTableRecord
100
AcDbBlockTableRecord
  2
*PAPER_SPACE
  0
BLOCK_RECORD
  5
2B
330
1
100
AcDbSymbolTableRecord
100
AcDbBlockTableRecord
  2
_DOT
  0
BLOCK_RECORD
  5
30
330
1
100
AcDbSymbolTableRecord
100
AcDbBlockTableRecord
  2
_DOTSMALL
  0
BLOCK_RECORD
  5
C3
330
1
100
AcDbSymbolTableRecord
100
AcDbBlockTableRecord
  2
*D3
  0
BLOCK_RECORD
  5
D1
330
1
100
AcDbSymbolTableRecord
100
AcDbBlockTableRecord
  2
*D4
  0
ENDTAB
  0
ENDSEC
  0
SECTION
  2
BLOCKS
  0
BLOCK
  5
20
330
1F
100
AcDbEntity
  8
0
100
AcDbBlockBegin
  2
*MODEL_SPACE
 70
     0
 10
0.0
 20
0.0
 30
0.0
  3
*MODEL_SPACE
  1

  0
ENDBLK
  5
21
330
1F
100
AcDbEntity
  8
0
100
AcDbBlockEnd
  0
BLOCK
  5
1C
330
1B
100
AcDbEntity
 67
     1
  8
0
100
AcDbBlockBegin
  2
*PAPER_SPACE
 70
     0
 10
0.0
 20
0.0
 30
0.0
  3
*PAPER_SPACE
  1

  0
ENDBLK
  5
1D
330
1B
100
AcDbEntity
 67
     1
  8
0
100
AcDbBlockEnd
  0
BLOCK
  5
2E
330
2B
100
AcDbEntity
  8
0
100
AcDbBlockBegin
  2
_DOT
 70
     0
 10
0.0
 20
0.0
 30
0.0
  3
_DOT
  1

  0
LWPOLYLINE
  5
2C
330
2B
100
AcDbEntity
  8
L
 62
     0
100
AcDbPolyline
 90
        2
 70
     1
 43
0.5
 10
-0.25
 20
0.0
 42
1.0
 10
0.25
 20
0.0
 42
1.0
  0
LINE
  5
2D
330
2B
100
AcDbEntity
  8
L
 62
     0
100
AcDbLine
 10
-0.5
 20
0.0
 30
0.0
 11
-1.0
 21
0.0
 31
0.0
  0
ENDBLK
  5
2F
330
2B
100
AcDbEntity
  8
0
100
AcDbBlockEnd
  0
BLOCK
  5
32
330
30
100
AcDbEntity
  8
0
 48
0.116666
100
AcDbBlockBegin
  2
_DOTSMALL
 70
     0
 10
0.0
 20
0.0
 30
0.0
  3
_DOTSMALL
  1

  0
LWPOLYLINE
  5
31
330
30
100
AcDbEntity
  8
0
  6
BYBLOCK
 62
     0
100
AcDbPolyline
 90
        2
 70
     1
 43
0.5
 10
-0.0625
 20
0.0
 42
1.0
 10
0.0625
 20
0.0
 42
1.0
  0
ENDBLK
  5
33
330
30
100
AcDbEntity
  8
0
 48
0.116666
100
AcDbBlockEnd
  0
BLOCK
  5
CE
330
C3
100
AcDbEntity
  8
0
100
AcDbBlockBegin
  2
*D3
 70
     1
 10
0.0
 20
0.0
 30
0.0
  3
*D3
  1

  0
LINE
  5
C4
330
C3
100
AcDbEntity
  8
0
 62
     0
100
AcDbLine
 10
11.26876962677426
 20
8.517120868959999
 30
0.0
 11
11.26876962677426
 21
9.320601371845114
 31
0.0
  0
LINE
  5
C5
330
C3
100
AcDbEntity
  8
0
 62
     0
100
AcDbLine
 10
2.268769626774261
 20
8.517120868959999
 30
0.0
 11
2.268769626774261
 21
9.320601371845114
 31
0.0
  0
LINE
  5
C6
330
C3
100
AcDbEntity
  8
0
 62
     0
100
AcDbLine
 10
11.08876962677426
 20
9.140601371845114
 30
0.0
 11
7.098769626774261
 21
9.140601371845114
 31
0.0
  0
LINE
  5
C7
330
C3
100
AcDbEntity
  8
0
 62
     0
100
AcDbLine
 10
2.448769626774261
 20
9.140601371845114
 30
0.0
 11
6.438769626774261
 21
9.140601371845114
 31
0.0
  0
SOLID
  5
C8
330
C3
100
AcDbEntity
  8
0
 62
     0
100
AcDbTrace
 10
11.08876962677426
 20
9.170601371845114
 30
0.0
 11
11.08876962677426
 21
9.110601371845115
 31
0.0
 12
11.26876962677426
 22
9.140601371845114
 32
0.0
 13
11.26876962677426
 23
9.140601371845114
 33
0.0
  0
SOLID
  5
C9
330
C3
100
AcDbEntity
  8
0
 62
     0
100
AcDbTrace
 10
2.448769626774261
 20
9.170601371845114
 30
0.0
 11
2.448769626774261
 21
9.110601371845115
 31
0.0
 12
2.268769626774261
 22
9.140601371845114
 32
0.0
 13
2.268769626774261
 23
9.140601371845114
 33
0.0
  0
MTEXT
  5
CA
330
C3
100
AcDbEntity
  8
0
 62
     0
100
AcDbMText
 10
6.768769626774261
 20
9.140601371845114
 30
0.0
 40
0.18
 41
0.0
 71
     5
 72
     1
  1
\A1;9.00
1001
ACAD
1000
MTEXTBEGIN
1070
    73
1070
     1
1070
    44
1040
1.0
1070
    74
1070
     0
1000
MTEXTEND
  0
POINT
  5
CB
330
C3
100
AcDbEntity
  8
DEFPOINTS
 62
     0
100
AcDbPoint
 10
11.26876962677426
 20
8.454620868959999
 30
0.0
  0
POINT
  5
CC
330
C3
100
AcDbEntity
  8
DEFPOINTS
 62
     0
100
AcDbPoint
 10
2.268769626774261
 20
8.454620868959999
 30
0.0
  0
POINT
  5
CD
330
C3
100
AcDbEntity
  8
DEFPOINTS
 62
     0
100
AcDbPoint
 10
2.268769626774261
 20
9.140601371845114
 30
0.0
  0
ENDBLK
  5
CF
330
C3
100
AcDbEntity
  8
0
100
AcDbBlockEnd
  0
BLOCK
  5
DC
330
D1
100
AcDbEntity
  8
0
100
AcDbBlockBegin
  2
*D4
 70
     1
 10
0.0
 20
0.0
 30
0.0
  3
*D4
  1

  0
LINE
  5
D2
330
D1
100
AcDbEntity
  8
0
 62
     0
100
AcDbLine
 10
2.226269626774243
 20
8.474620868959981
 30
0.0
 11
1.52239257153047
 21
8.474620868959981
 31
0.0
  0
LINE
  5
D3
330
D1
100
AcDbEntity
  8
0
 62
     0
100
AcDbLine
 10
2.221269626773906
 20
6.849620868958616
 30
0.0
 11
1.52239257153047
 21
6.849620868958617
 31
0.0
  0
LINE
  5
D4
330
D1
100
AcDbEntity
  8
0
 62
     0
100
AcDbLine
 10
1.70239257153047
 20
8.294620868959981
 30
0.0
 11
1.70239257153047
 21
7.842120868959298
 31
0.0
  0
LINE
  5
D5
330
D1
100
AcDbEntity
  8
0
 62
     0
100
AcDbLine
 10
1.70239257153047
 20
7.029620868958617
 30
0.0
 11
1.70239257153047
 21
7.482120868959299
 31
0.0
  0
SOLID
  5
D6
330
D1
100
AcDbEntity
  8
0
 62
     0
100
AcDbTrace
 10
1.67239257153047
 20
8.294620868959981
 30
0.0
 11
1.73239257153047
 21
8.294620868959981
 31
0.0
 12
1.70239257153047
 22
8.474620868959981
 32
0.0
 13
1.70239257153047
 23
8.474620868959981
 33
0.0
  0
SOLID
  5
D7
330
D1
100
AcDbEntity
  8
0
 62
     0
100
AcDbTrace
 10
1.67239257153047
 20
7.029620868958617
 30
0.0
 11
1.73239257153047
 21
7.029620868958617
 31
0.0
 12
1.70239257153047
 22
6.849620868958617
 32
0.0
 13
1.70239257153047
 23
6.849620868958617
 33
0.0
  0
MTEXT
  5
D8
330
D1
100
AcDbEntity
  8
0
 62
     0
100
AcDbMText
 10
1.702392571530469
 20
7.662120868959299
 30
0.0
 40
0.18
 41
0.0
 71
     5
 72
     1
  1
\A1;1.63
1001
ACAD
1000
MTEXTBEGIN
1070
    73
1070
     1
1070
    44
1040
1.0
1070
    74
1070
     0
1000
MTEXTEND
  0
POINT
  5
D9
330
D1
100
AcDbEntity
  8
DEFPOINTS
 62
     0
100
AcDbPoint
 10
2.288769626774243
 20
8.474620868959981
 30
0.0
  0
POINT
  5
DA
330
D1
100
AcDbEntity
  8
DEFPOINTS
 62
     0
100
AcDbPoint
 10
2.283769626773906
 20
6.849620868958616
 30
0.0
  0
POINT
  5
DB
330
D1
100
AcDbEntity
  8
DEFPOINTS
 62
     0
100
AcDbPoint
 10
1.70239257153047
 20
6.849620868958617
 30
0.0
  0
ENDBLK
  5
DD
330
D1
100
AcDbEntity
  8
0
100
AcDbBlockEnd
  0
ENDSEC
  0
SECTION
  2
ENTITIES
  0
TEXT
  5
BF
330
1F
100
AcDbEntity
  8
TX
 48
0.233332
100
AcDbText
 10
2.137912730469462
 20
5.715942336004085
 30
0.0
 40
0.09375
  1
SCALE : 1" = 1"
  7
REG
 11
2.137912730469462
 21
5.809692336004085
 31
0.0
100
AcDbText
 73
     3
  0
TEXT
  5
C0
330
1F
100
AcDbEntity
  8
MAIN
 62
     3
 48
0.233332
100
AcDbText
 10
2.137912730469462
 20
5.997164021366282
 30
0.0
 40
0.140625
  1
1 PART 9" BODY #1923
  7
REG
100
AcDbText
  0
LWPOLYLINE
  5
C1
330
1F
100
AcDbEntity
  8
MAIN
 62
     5
 48
0.233332
100
AcDbPolyline
 90
        2
 70
     0
 43
0.028125
 10
2.04417688778842
 20
5.903428178685183
 10
4.853453827443569
 20
5.903428178685183
  0
DIMENSION
  5
C2
330
1F
100
AcDbEntity
  8
0
100
AcDbDimension
  2
*D3
 10
2.268769626774261
 20
9.140601371845114
 30
0.0
 11
6.768769626774261
 21
9.140601371845114
 31
0.0
 70
    32
  3
STANDARD
100
AcDbAlignedDimension
 13
11.26876962677426
 23
8.454620868959999
 33
0.0
 14
2.268769626774261
 24
8.454620868959999
 34
0.0
100
AcDbRotatedDimension
  0
DIMENSION
  5
D0
330
1F
100
AcDbEntity
  8
0
100
AcDbDimension
  2
*D4
 10
1.70239257153047
 20
6.849620868958617
 30
0.0
 11
1.702392571530469
 21
7.662120868959299
 31
0.0
 70
    32
  3
STANDARD
100
AcDbAlignedDimension
 13
2.288769626774243
 23
8.474620868959981
 33
0.0
 14
2.283769626773906
 24
6.849620868958616
 34
0.0
 50
90.0
100
AcDbRotatedDimension
  0
LWPOLYLINE
  5
195
330
1F
100
AcDbEntity
  8
MAIN
 62
     3
100
AcDbPolyline
 90
      176
 70
     1
 43
0.0
 10
11.19176962677426
 20
6.91162086895931
 42
0.4142135623575561
 10
11.20676962677481
 20
6.926620868958842
 10
11.20676962677459
 20
8.026620868958751
 42
0.4142135623597758
 10
11.19176962677449
 20
8.041620868959533
 10
11.08676962677447
 20
8.041620868958624
 42
0.4142135623664355
 10
11.07676962677448
 20
8.031620868959315
 10
11.07676962677448
 20
8.00162086895866
 42
-0.4142135623597758
 10
11.06676962677471
 20
7.991620868958897
 10
11.02976962677445
 20
7.991620868958897
 42
-0.4142135623775349
 10
11.01476962677435
 20
8.006620868958769
 10
11.01476962677435
 20
8.072620868958573
 42
-0.4142135623709468
 10
11.04576962677453
 20
8.103620868958977
 10
11.19176962677426
 20
8.103620868959431
 42
0.4142135623730951
 10
11.20676962677459
 20
8.118620868958849
 10
11.20676962677449
 20
8.334620868960108
 42
0.4142135623730951
 10
11.16676962677451
 20
8.374620868960072
 10
10.30876962677411
 20
8.37462086896008
 42
0.4142135623730951
 10
10.26876962677414
 20
8.334620868960108
 10
10.26876962677369
 20
7.414620868960035
 42
0.4142135623730951
 10
10.30876962677365
 20
7.374620868960072
 10
10.56640297458836
 20
7.37462086896006
 42
0.2001604496931437
 10
10.57706037797349
 20
7.379065313404593
 42
-1.215447433725004
 10
10.60476962677518
 20
7.294620868959235
 10
10.30876962677365
 20
7.294620868959235
 42
0.4142135623730951
 10
10.26876962677369
 20
7.254620868959271
 10
10.26876962677403
 20
6.663620868958012
 42
-0.4142135623730951
 10
10.22876962677407
 20
6.623620868957594
 10
10.16726962677404
 20
6.623620868957594
 42
-1.000000000000003
 10
10.16726962677404
 20
6.686620868958605
 10
10.1957696267736
 20
6.686620868958605
 42
0.4142135623664355
 10
10.20576962677359
 20
6.696620868958824
 10
10.20576962677302
 20
6.739620868958944
 10
9.185269626774871
 20
6.739620868958262
 42
-1.000000000000003
 10
9.185269626774871
 20
6.839620868959308
 10
9.928769626773888
 20
6.839620868958853
 42
0.4142135623730951
 10
9.938769626774107
 20
6.849620868959071
 10
9.938769626774107
 20
6.879620868959726
 42
-0.4142135623730951
 10
9.958769626774088
 20
6.899620868959708
 10
9.97876962677407
 20
6.899620868959708
 42
-0.4142135623730951
 10
9.998769626774052
 20
6.879620868959726
 10
9.998769626774166
 20
6.859620868959289
 42
0.4142135623730951
 10
10.01876962677414
 20
6.839620868959308
 10
10.15876962677481
 20
6.839620868959251
 42
0.4142135623897441
 10
10.1687696267748
 20
6.849620868959526
 10
10.16876962677458
 20
7.094620868959417
 42
0.4142135623664355
 10
10.15876962677458
 20
7.104620868959635
 10
9.895769626768984
 20
7.10462086896009
 42
-1.000000000000003
 10
9.895769626768984
 20
7.204620868960454
 10
9.965769626768807
 20
7.204620868960851
 42
0.4142135623631056
 10
9.975769626768798
 20
7.214620868960217
 10
9.97576962676948
 20
7.244620868961327
 42
-0.9999999999711269
 10
10.03876962677094
 20
7.244620868960417
 10
10.03876962677174
 20
7.214620868959762
 42
0.4142135623531162
 10
10.04876962677173
 20
7.204620868959999
 10
10.15876962677424
 20
7.204620868959999
 42
0.4142135623664355
 10
10.16876962677423
 20
7.214620868960217
 10
10.16876962677469
 20
8.324620868962163
 42
0.4142135623664355
 10
10.1587696267747
 20
8.334620868962382
 10
10.04876962677423
 20
8.334620868962382
 42
0.4142135623664355
 10
10.03876962677424
 20
8.324620868962163
 10
10.03876962677407
 20
8.099620868958616
 42
-0.4142135623597758
 10
9.928769626774002
 20
7.989620868958944
 10
9.813769626774789
 20
7.989620868958489
 42
-1.000000000000003
 10
9.813769626774789
 20
8.069620868959326
 10
9.928769626774229
 20
8.069620868959269
 42
0.4142135623597758
 10
9.938769626774107
 20
8.079620868959544
 10
9.938769626774556
 20
8.364620868960763
 42
0.4142135623697651
 10
9.92876962677457
 20
8.374620868960981
 10
8.873769626774279
 20
8.374620868960583
 42
0.4142135623631056
 10
8.853769626774411
 20
8.354620868961909
 42
-0.4142135623730951
 10
8.833769626774429
 20
8.334620868961927
 10
8.793769626774807
 20
8.334620868961529
 42
-0.4142135623780898
 10
8.773769626775166
 20
8.354620868961909
 42
0.4142135623730951
 10
8.75376962677473
 20
8.374620868960526
 10
6.828769626773866
 20
8.374620868960526
 42
0.4142135623664355
 10
6.808769626773884
 20
8.354620868961909
 42
-0.4142135623714302
 10
6.788769626774016
 20
8.334620868961927
 10
6.748769626774393
 20
8.33462086896187
 42
-0.4142135623664355
 10
6.728769626774866
 20
8.354620868961909
 42
0.4142135623864144
 10
6.708769626774429
 20
8.374620868960072
 10
5.598769626773734
 20
8.374620868959617
 10
5.583769626773861
 20
8.389620868959489
 10
5.568769626777285
 20
8.374620868962345
 10
4.783769626773679
 20
8.374620868961891
 42
0.4142135623714302
 10
4.763769626773811
 20
8.354620868961909
 42
-0.4142135623747599
 10
4.743769626773715
 20
8.334620868961927
 10
4.703769626774093
 20
8.334620868961927
 42
-0.4142135623730951
 10
4.683769626774111
 20
8.354620868961909
 42
0.4142135623647706
 10
4.663769626774243
 20
8.374620868961436
 10
3.608769626774179
 20
8.374620868960981
 42
0.4142135623664355
 10
3.598769626774188
 20
8.364620868960763
 10
3.598769626774302
 20
8.079620868959544
 42
0.4142135623597758
 10
3.608769626774066
 20
8.069620868959326
 10
3.723769626773449
 20
8.069620868959553
 42
-0.9999999999985783
 10
3.723769626773393
 20
7.989620868958944
 10
3.608769626769518
 20
7.989620868958716
 42
-0.4142135623591703
 10
3.498769626773938
 20
8.099620868958616
 10
3.498769626774279
 20
8.324620868962163
 42
0.4142135623664355
 10
3.488769626774288
 20
8.334620868962382
 10
3.37876962677382
 20
8.334620868962382
 42
0.4142135623664355
 10
3.368769626773829
 20
8.324620868962163
 10
3.368769626774057
 20
7.214620868960217
 42
0.4142135623664355
 10
3.378769626774047
 20
7.204620868959999
 10
3.488769626776562
 20
7.204620868959544
 42
0.4142135623697653
 10
3.498769626776667
 20
7.214620868959762
 10
3.498769626777349
 20
7.244620868960417
 42
-0.9999999999711269
 10
3.561769626778815
 20
7.244620868961327
 10
3.561769626779724
 20
7.214620868960217
 42
0.4142135623597758
 10
3.571769626779488
 20
7.204620868960454
 10
3.641769626779311
 20
7.204620868960681
 42
-1.000000000000003
 10
3.641769626779311
 20
7.104620868959635
 10
3.378769626773706
 20
7.104620868959635
 42
0.4142135623664355
 10
3.368769626773715
 20
7.094620868959417
 10
3.368769626773602
 20
6.849620868959526
 42
0.4142135623897441
 10
3.378769626773479
 20
6.839620868959308
 10
3.518769626774147
 20
6.839620868959308
 42
0.4142135623730951
 10
3.538769626774129
 20
6.859620868959289
 10
3.538769626774243
 20
6.879620868959726
 42
-0.4142135623730951
 10
3.558769626774225
 20
6.899620868959708
 10
3.578769626774207
 20
6.899620868959708
 42
-0.4142135623730951
 10
3.598769626774188
 20
6.879620868959726
 10
3.598769626774188
 20
6.849620868959071
 42
0.4142135623730951
 10
3.608769626774407
 20
6.839620868959308
 10
4.352269626773423
 20
6.839620868958853
 42
-1.000000000000003
 10
4.352269626773423
 20
6.739620868958489
 10
3.308769626774566
 20
6.739620868958944
 42
-0.4142135623730951
 10
3.268769626774602
 20
6.779620868958907
 10
3.268769626774602
 20
7.254620868959271
 42
0.4142135623730951
 10
3.228769626774639
 20
7.294620868959235
 10
2.932769626773117
 20
7.294620868958825
 42
-1.215447433724862
 10
2.960478875574676
 20
7.379065313404368
 42
0.2001604496931436
 10
2.971136278959935
 20
7.374620868960072
 10
3.228769626774639
 20
7.374620868960072
 42
0.4142135623730951
 10
3.268769626774602
 20
7.414620868960035
 10
3.268769626774156
 20
8.334620868960108
 42
0.4142135623730951
 10
3.228769626774184
 20
8.374620868960072
 10
2.370769626774009
 20
8.374620868960091
 42
0.4142135623730951
 10
2.330769626774046
 20
8.334620868960108
 10
2.330769626773932
 20
8.118620868958849
 42
0.4142135623730951
 10
2.345769626774259
 20
8.103620868959431
 10
2.49176962677399
 20
8.103620868958977
 42
-0.4142135623709468
 10
2.522769626774167
 20
8.072620868958573
 10
2.522769626774167
 20
8.006620868958769
 42
-0.4142135623775346
 10
2.507769626774067
 20
7.991620868958897
 10
2.470769626773805
 20
7.991620868959351
 42
-0.4142135623597758
 10
2.460769626774041
 20
8.00162086895866
 10
2.460769626774041
 20
8.031620868959315
 42
0.4142135623664355
 10
2.45076962677405
 20
8.041620868958624
 10
2.345769626774032
 20
8.041620868959533
 42
0.4142135623597758
 10
2.330769626773932
 20
8.026620868958751
 10
2.330769626773705
 20
6.926620868958842
 42
0.4142135623553363
 10
2.345769626774032
 20
6.911620868959424
 10
2.45076962677405
 20
6.911620868959424
 42
0.4142135623597758
 10
2.460769626773814
 20
6.921620868958733
 10
2.460769626773814
 20
6.951620868958933
 42
-0.4142135623730951
 10
2.470769626774032
 20
6.961620868958696
 10
2.507769626774067
 20
6.961620868958281
 42
-0.3084899572725408
 10
2.521733349570121
 20
6.952099413079594
 42
0.2862624068667973
 10
2.538719775363211
 20
6.939470824846982
 42
-0.9599697122266148
 10
2.535048065010702
 20
6.849620868959071
 10
2.283769626773906
 20
6.849620868958616
 42
-0.4142135623819748
 10
2.268769626774034
 20
6.864620868958944
 10
2.268769626774261
 20
8.454620868959999
 42
-0.4142135623664355
 10
2.288769626774243
 20
8.474620868959981
 10
11.24876962677427
 20
8.474620868959526
 42
-0.4142135623664355
 10
11.26876962677426
 20
8.454620868959999
 10
11.26876962677426
 20
6.864620868958944
 42
-0.4142135623819744
 10
11.25376962677439
 20
6.849620868959071
 10
11.00249118853759
 20
6.849620868959455
 42
-0.959969712226615
 10
10.99881947818508
 20
6.939470824846996
 42
0.286262406866797
 10
11.01580590397847
 20
6.952099413079477
 42
-0.3084899572725408
 10
11.02976962677422
 20
6.961620868958696
 10
11.06676962677426
 20
6.961620868958696
 42
-0.4142135623597758
 10
11.07676962677448
 20
6.951620868958933
 10
11.07676962677448
 20
6.921620868958733
 42
0.4142135623597758
 10
11.08676962677424
 20
6.911620868958969
  0
ENDSEC
  0
SECTION
  2
OBJECTS
  0
DICTIONARY
  5
C
330
0
100
AcDbDictionary
  3
ACAD_GROUP
350
D
  3
ACAD_LAYOUT
350
1A
  3
ACAD_MLINESTYLE
350
17
  3
ACAD_PLOTSETTINGS
350
19
  3
ACAD_PLOTSTYLENAME
350
E
  3
ACDBHEADERROUNDTRIPXREC
350
247
  0
DICTIONARY
  5
269
330
1F
100
AcDbDictionary
280
     1
  3
ACAD_LAYOUTSELFREF
360
26A
  0
DICTIONARY
  5
267
330
1B
100
AcDbDictionary
280
     1
  3
ACAD_LAYOUTSELFREF
360
268
  0
DICTIONARY
  5
D
102
{ACAD_REACTORS
330
C
102
}
330
C
100
AcDbDictionary
  0
DICTIONARY
  5
1A
102
{ACAD_REACTORS
330
C
102
}
330
C
100
AcDbDictionary
  0
DICTIONARY
  5
17
102
{ACAD_REACTORS
330
C
102
}
330
C
100
AcDbDictionary
  3
STANDARD
350
18
  0
DICTIONARY
  5
19
102
{ACAD_REACTORS
330
C
102
}
330
C
100
AcDbDictionary
  0
ACDBDICTIONARYWDFLT
  5
E
102
{ACAD_REACTORS
330
C
102
}
330
C
100
AcDbDictionary
281
     1
  3
Normal
350
F
100
AcDbDictionaryWithDefault
340
F
  0
DICTIONARY
  5
247
102
{ACAD_REACTORS
330
C
102
}
330
C
100
AcDbDictionary
  3
CEPSNTYPE
350
251
  3
FINGERPRINTGUID
350
252
  3
HYPERLINKBASE
350
24A
  3
INSUNITS
350
250
  3
LAYOUTDICT
350
24C
  3
LWETCUNION
350
24F
  3
PLOTSETDICT
350
24D
  3
PLOTSTYLNAMDICT
350
24E
  3
PSVPSCALE
350
254
  3
PUCSBASE
350
257
  3
PUCSORGBACK
350
25D
  3
PUCSORGBOTTOM
350
259
  3
PUCSORGFRONT
350
25C
  3
PUCSORGLEFT
350
25A
  3
PUCSORGRIGHT
350
25B
  3
PUCSORGTOP
350
258
  3
PUCSORTHOREF
350
255
  3
PUCSORTHOVIEW
350
256
  3
STYLESHEET
350
24B
  3
TSTACKALIGN
350
248
  3
TSTACKSIZE
350
249
  3
UCSBASE
350
260
  3
UCSORGBACK
350
266
  3
UCSORGBOTTOM
350
262
  3
UCSORGFRONT
350
265
  3
UCSORGLEFT
350
263
  3
UCSORGRIGHT
350
264
  3
UCSORGTOP
350
261
  3
UCSORTHOREF
350
25E
  3
UCSORTHOVIEW
350
25F
  3
VERSIONGUID
350
253
  0
XRECORD
  5
26A
102
{ACAD_REACTORS
330
269
102
}
330
269
100
AcDbXrecord
340
1F
  0
XRECORD
  5
268
102
{ACAD_REACTORS
330
267
102
}
330
267
100
AcDbXrecord
340
1B
  0
MLINESTYLE
  5
18
102
{ACAD_REACTORS
330
17
102
}
330
17
100
AcDbMlineStyle
  2
STANDARD
 70
     0
  3

 62
   256
 51
90.0
 52
90.0
 71
     2
 49
0.5
 62
   256
  6
BYLAYER
 49
-0.5
 62
   256
  6
BYLAYER
  0
ACDBPLACEHOLDER
  5
F
102
{ACAD_REACTORS
330
E
102
}
330
E
100
AcDbPlaceHolder
280
     0
  0
XRECORD
  5
251
102
{ACAD_REACTORS
330
247
102
}
330
247
100
AcDbXrecord
 90
        0
  0
XRECORD
  5
252
102
{ACAD_REACTORS
330
247
102
}
330
247
100
AcDbXrecord
  1
{DC175E3D-AE85-11D5-9A93-0040C77E826B}
  0
XRECORD
  5
24A
102
{ACAD_REACTORS
330
247
102
}
330
247
100
AcDbXrecord
  1

  0
XRECORD
  5
250
102
{ACAD_REACTORS
330
247
102
}
330
247
100
AcDbXrecord
 90
        1
  0
XRECORD
  5
24C
102
{ACAD_REACTORS
330
247
102
}
330
247
100
AcDbXrecord
340
1A
  0
XRECORD
  5
24F
102
{ACAD_REACTORS
330
247
102
}
330
247
100
AcDbXrecord
 90
    10781
  0
XRECORD
  5
24D
102
{ACAD_REACTORS
330
247
102
}
330
247
100
AcDbXrecord
340
19
  0
XRECORD
  5
24E
102
{ACAD_REACTORS
330
247
102
}
330
247
100
AcDbXrecord
340
E
  0
XRECORD
  5
254
102
{ACAD_REACTORS
330
247
102
}
330
247
100
AcDbXrecord
 40
0.0
  0
XRECORD
  5
257
102
{ACAD_REACTORS
330
247
102
}
330
247
100
AcDbXrecord
340
0
  0
XRECORD
  5
25D
102
{ACAD_REACTORS
330
247
102
}
330
247
100
AcDbXrecord
 10
0.0
 20
0.0
 30
0.0
  0
XRECORD
  5
259
102
{ACAD_REACTORS
330
247
102
}
330
247
100
AcDbXrecord
 10
0.0
 20
0.0
 30
0.0
  0
XRECORD
  5
25C
102
{ACAD_REACTORS
330
247
102
}
330
247
100
AcDbXrecord
 10
0.0
 20
0.0
 30
0.0
  0
XRECORD
  5
25A
102
{ACAD_REACTORS
330
247
102
}
330
247
100
AcDbXrecord
 10
0.0
 20
0.0
 30
0.0
  0
XRECORD
  5
25B
102
{ACAD_REACTORS
330
247
102
}
330
247
100
AcDbXrecord
 10
0.0
 20
0.0
 30
0.0
  0
XRECORD
  5
258
102
{ACAD_REACTORS
330
247
102
}
330
247
100
AcDbXrecord
 10
0.0
 20
0.0
 30
0.0
  0
XRECORD
  5
255
102
{ACAD_REACTORS
330
247
102
}
330
247
100
AcDbXrecord
340
0
  0
XRECORD
  5
256
102
{ACAD_REACTORS
330
247
102
}
330
247
100
AcDbXrecord
 70
     0
  0
XRECORD
  5
24B
102
{ACAD_REACTORS
330
247
102
}
330
247
100
AcDbXrecord
  1

  0
XRECORD
  5
248
102
{ACAD_REACTORS
330
247
102
}
330
247
100
AcDbXrecord
 90
        1
  0
XRECORD
  5
249
102
{ACAD_REACTORS
330
247
102
}
330
247
100
AcDbXrecord
 90
       70
  0
XRECORD
  5
260
102
{ACAD_REACTORS
330
247
102
}
330
247
100
AcDbXrecord
340
0
  0
XRECORD
  5
266
102
{ACAD_REACTORS
330
247
102
}
330
247
100
AcDbXrecord
 10
0.0
 20
0.0
 30
0.0
  0
XRECORD
  5
262
102
{ACAD_REACTORS
330
247
102
}
330
247
100
AcDbXrecord
 10
0.0
 20
0.0
 30
0.0
  0
XRECORD
  5
265
102
{ACAD_REACTORS
330
247
102
}
330
247
100
AcDbXrecord
 10
0.0
 20
0.0
 30
0.0
  0
XRECORD
  5
263
102
{ACAD_REACTORS
330
247
102
}
330
247
100
AcDbXrecord
 10
0.0
 20
0.0
 30
0.0
  0
XRECORD
  5
264
102
{ACAD_REACTORS
330
247
102
}
330
247
100
AcDbXrecord
 10
0.0
 20
0.0
 30
0.0
  0
XRECORD
  5
261
102
{ACAD_REACTORS
330
247
102
}
330
247
100
AcDbXrecord
 10
0.0
 20
0.0
 30
0.0
  0
XRECORD
  5
25E
102
{ACAD_REACTORS
330
247
102
}
330
247
100
AcDbXrecord
340
0
  0
XRECORD
  5
25F
102
{ACAD_REACTORS
330
247
102
}
330
247
100
AcDbXrecord
 70
     0
  0
XRECORD
  5
253
102
{ACAD_REACTORS
330
247
102
}
330
247
100
AcDbXrecord
  1
{5CE8CBF8-EEA7-4B4E-B939-22DDE0F6D778}
  0
ENDSEC
  0
EOF
